מאמרים אחרונים

שתף בפייסבוק שיתוף בפייסבוק
RSS - מאמריםמאמרים
RSS - פורומיםפורומים
דווח למנהל דיווח למנהל
קישור לעמוד זה קישור לעמוד זה
עוד בקבוצת HT



עזרה בבעייה בקובץ MKV - לא מצליח לעבוד באמצעות ה PCH A110


   פורומים > HTPC ומחשוב > חומרה PC + סטרימרים
מחבר הודעה
sky1sky10
חבר מביא חבר
חבר מביא חבר

הצטרף בתאריך:
  Jul 25, 2005
הבעות תודה: 155
מספר הודעות: 3130

 #1  נשלח: ב' 18/10/2010 16:19
עזרה בבעייה בקובץ MKV - לא מצליח לעבוד באמצעות ה PCH A110

מנסה להפעיל דרך ה PCH A110 את קובץ הויידאו - אני מקבל רק תירגום וב INFO אני מקבל שהביטרייט הוא לא קיים (מקבל סימן - מינוס).
מהמחשב הקובץ עובד מצויין.

האם יש תקלה בקובץ? מצורף האינפו.

תודה מראש.

General

Complete name : \\Pch-a110\usb_drive_a-1\kids\Toy Story 3\Toy.Story.3.2010.1080p.BluRay.x264-ETHOS.mkv
Format : Matroska
File size : 7.95 GiB
Duration : 1h 42mn
Overall bit rate : 11.1 Mbps
Encoded date : UTC 2010-10-14 06:58:10
Writing application : mkvmerge v4.3.0 ('Escape fr0m the Island') built on Sep 5 2010 10:30:51
Writing library : libebml v1.0.0 + libmatroska v1.0.0

Video

ID : 1
Format : AVC
Format/Info : Advanced Video Codec
Format profile : [email protected]
Format settings, CABAC : Yes
Format settings, ReFrames : 3 frames
Muxing mode : Container [email protected]
Codec ID : V_MPEG4/ISO/AVC
Duration : 1h 42mn
Bit rate : 9 586 Kbps
Width : 1 920 pixels
Height : 1 080 pixels
Display aspect ratio : 16:9
Frame rate : 23.976 fps
Color space : YUV
Chroma subsampling : 4:2:0
Bit depth : 8 bits
Scan type : Progressive
Bits/(Pixel*Frame) : 0.193
Stream size : 6.71 GiB (84%)
Writing library : x264 core 107 r1745 4785e8e
Encoding settings : cabac=1 / ref=4 / deb1ock=1:0:0 / analyse=0x3:0x133 / me=umh / subme=7 / psy=1 / psy_rd=1.00:0.20 / mixed_ref=1 / me_range=16 / chroma_me=1 / trellis=1 / 8x8dct=1 / cqm=0 / deadzone=21,11 / fast_pskip=1 / chroma_qp_offset=-6 / threads=12 / sliced_threads=0 / nr=0 / decimate=1 / interlaced=0 / constrained_intra=0 / bframes=3 / b_pyramid=1 / b_adapt=1 / b_bias=0 / direct=3 / weightb=1 / open_gop=0 / weightp=0 / keyint=250 / keyint_min=23 / scenecut=40 / intra_refresh=0 / rc_lookahead=40 / rc=2pass / mbtree=1 / bitrate=9586 / ratetol=1.0 / qcomp=0.60 / qpmin=10 / qpmax=51 / qpstep=4 / cplxblur=20.0 / qblur=0.5 / ip_ratio=1.40 / aq=1:1.00
Language : English

Audio

ID : 2
Format : DTS
Format/Info : Digital Theater Systems
Format profile : ES
Muxing mode : Header stripping
Codec ID : A_DTS
Duration : 1h 42mn
Bit rate mode : Constant
Bit rate : 1 510 Kbps
Channel(s) : 6 channels
Channel positions : Front: L C R, Side: L R, LFE
Sampling rate : 48.0 KHz
Bit depth : 24 bits
Stream size : 1.08 GiB (14%)


נערך בפעם אחרונה על-ידי sky1sky10 בתאריך ב' 18/10/2010 21:56, נערך סך הכל פעם אחת
| פרופיל | שלח הודעה | חפש
agent__smith (גיל)
חבר מכור קשה
חבר מכור קשה

הצטרף בתאריך:
  Jul 22, 2010

מיקום: איפשהוא במטריקס
הבעות תודה: 146
מספר הודעות: 6317

 #2  נשלח: ב' 18/10/2010 16:39

יש עוד דיון בנושא כנראה יש בעייה לכמה סוגי סטרימרים עם הקובץ הנ"ל.
_________________
יש לי מחשב משחקים מה זה עצבני !!!!
| פרופיל | שלח הודעה | חפש
Jessy24
חבר שרק התחיל
חבר שרק התחיל

הצטרף בתאריך:
  Oct 19, 2010
הבעות תודה: 1
מספר הודעות: 2

 #3  נשלח: ג' 19/10/2010 18:26

i think your issue is related to the Support of MKV header compression support

many MKV file are now being coded using Header compression

it as been reported that A110 as many issue with these kind of files

please look in NMT forums for more information
(1) הבעות תודה: sky1sky10
| פרופיל | שלח הודעה | חפש
ziv_r (זיו)
חבר במועדון 10K
חבר במועדון 10K


הצטרף בתאריך:
  Jan 05, 2005
הבעות תודה: 3871
מספר הודעות: 37600

 #4  נשלח: ד' 20/10/2010 0:00

במידה וזאת באמת הבעיה, הפתרון הוא:
1. פתיחת הקובץ ב mkvmerge GUI.
2. סימון הערוץ של הוידאו.
3. בלשונית של Extra Options, תחת אופציית Compression, יש לבחור None.
4. לחץ Start muxing.


נערך בפעם אחרונה על-ידי ziv_r בתאריך ה' 10/02/2011 13:37, נערך סך הכל פעם אחת
(1) הבעות תודה: sky1sky10
| פרופיל | שלח הודעה | חפש
sky1sky10
חבר מביא חבר
חבר מביא חבר

הצטרף בתאריך:
  Jul 25, 2005
הבעות תודה: 155
מספר הודעות: 3130

 #5  נשלח: ד' 20/10/2010 0:30

תודה לכם

אכן הפתרון של זיו - עובד מצויין ופתר את הבעייה.
| פרופיל | שלח הודעה | חפש
כל הזמנים הם שעון קיץ - ישראל (GMT+3) הצג הודעות קודמות:    
פורומים > חומרה PC + סטרימרים


  
    שם משתמש:
נתוני כניסה לכל אתרי HT:

  סיסמא:
 

  


 | 

קפוץ אל: 
לא ניתן לשלוח הודעות בפורום זה
לא ניתן להגיב להודעות בפורום זה
לא ניתן לערוך את הודעותיך בפורום זה
לא ניתן למחוק את הודעותיך בפורום זה
לא ניתן להצביע לסקרים בפורום זה
לא ניתן לצרף קבצים בפורום זה
לא ניתן להוריד קבצים בפורום זה

תקנון / תנאי השימוש באתר צור קשר / contact us כל הזכויות שמורות לקבוצת ht